Skip to main content

Indecision Live at Chameleon Club on 1997-01-25


Topics Live concert


01. I'm Not From Here
02. Ibb's Jazz
03. What Do You Do?
04. Instant Armadillo Blues
05. She's No Betty
06. Weeds
07. The Strain
08. Walk The Plank
09. Kitchen
10. Samba
11. Take It All In
12. Ponder Yonder
13. Razor's Edge
14. crowd & tuning
15. High Steppin'
16. Foolish Pride >
17. Little Birdie
18. Middle >
19. All I Need
20. Come Dancing
21. The Singer
22. The Bu
23. Compared To What >
24. Just A Little Bit
25. Song of the Itinerant Bible Salesman
26. Spinnin'
27. Jump For Joy >
28. Chicken In The Pot
29. crowd & tuning
30. Humanoid Boogie
31. Some Bad


Collection Indecision
Band/Artist Indecision
Venue Chameleon Club
Location Atlanta, GA

Source SBD > DAT(masters) @ 16/48
Lineage coax > Audiophile2496 > Peak4.13 > xACT > FLAC @ 16/44
Taped by J.T. Lucchesi (Home Team)
Transferred by J.T. Lucchesi (Home Team)

Notes

- disc 1 / set 1 - (77:34.48)
01. I'm Not From Here
02. Ibb's Jazz >
03. What Do You Do? >
04. Instant Armadillo Blues
05. She's No Betty
06. Weeds
07. The Strain >
08. Walk The Plank
09. Kitchen
10. Samba
11. Take It All In >
12. Ponder Yonder
13. Razor's Edge

- disc 2 / set 2 - (57:37.44)
01. crowd & tuning
02. High Steppin'
03. Foolish Pride >
04. Little Birdie
05. Middle >
06. All I Need
07. Come Dancing
08. The Singer
09. The Bu

- disc 3 / set 2 continued - (56:16.61)
01. Compared To What >
02. Just A Little Bit
03. Song of the Itinerant Bible Salesman
04. Spinnin'
05. Jump For Joy >
06. Chicken In The Pot
07. crowd & tuning
- encore -
08. Humanoid Boogie
09. Some Bad

runtime: 191:29

http://indecision.com

source: SBD > DAT(masters) @ 16/48
transfer: coax > Audiophile2496 > Peak4.13 > xACT > FLAC @ 16/44
recorded & transferred by J.T. Lucchesi (Home Team)

notes:
- slight SBD feed problems during d1t01
- possibly missing second encore

shntool results:
length expanded size cdr WAVE problems filename
5:24.19 57198332 --- -- ---xx indecision1997-01-25d1t01.flac
5:42.19 60373532 --- -- ---xx indecision1997-01-25d1t02.flac
7:30.13 79410620 --- -- ---xx indecision1997-01-25d1t03.flac
4:51.01 51334796 --- -- ---xx indecision1997-01-25d1t04.flac
6:42.40 71006924 --- -- ---xx indecision1997-01-25d1t05.flac
5:44.21 60731036 --- -- ---xx indecision1997-01-25d1t06.flac
6:02.65 64009724 --- -- ---xx indecision1997-01-25d1t07.flac
4:02.34 42768812 --- -- ---xx indecision1997-01-25d1t08.flac
6:02.73 64028540 --- -- ---xx indecision1997-01-25d1t09.flac
4:17.58 45471260 --- -- ---xx indecision1997-01-25d1t10.flac
7:54.07 83630108 --- -- ---xx indecision1997-01-25d1t11.flac
8:37.43 91299980 --- -- ---xx indecision1997-01-25d1t12.flac
4:42.30 49815404 --- -- ---xx indecision1997-01-25d1t13.flac
1:03.71 11280236 --- -- ---xx indecision1997-01-25d2t01.flac
10:41.33 113150060 --- -- ---xx indecision1997-01-25d2t02.flac
4:38.51 49159196 --- -- ---xx indecision1997-01-25d2t03.flac
7:13.14 76414172 --- -- ---xx indecision1997-01-25d2t04.flac
4:29.61 47595116 --- -- ---xx indecision1997-01-25d2t05.flac
4:28.46 47383436 --- -- ---xx indecision1997-01-25d2t06.flac
6:34.40 69595724 --- -- ---xx indecision1997-01-25d2t07.flac
11:16.35 119328764 --- -- ---xx indecision1997-01-25d2t08.flac
7:10.68 76011980 --- -- ---xx indecision1997-01-25d2t09.flac
6:34.16 69539276 --- -- ---xx indecision1997-01-25d3t01.flac
9:38.69 102121532 --- -- ---xx indecision1997-01-25d3t02.flac
6:34.61 69645116 --- -- ---xx indecision1997-01-25d3t03.flac
6:37.44 70134332 --- -- ---xx indecision1997-01-25d3t04.flac
3:55.74 41628092 --- -- ---xx indecision1997-01-25d3t05.flac
10:53.55 115318604 --- -- ---xx indecision1997-01-25d3t06.flac
4:18.19 45555932 --- -- ---xx indecision1997-01-25d3t07.flac
3:20.31 35352956 --- -- ---xx indecision1997-01-25d3t08.flac
4:22.67 46374428 --- -- ---xx indecision1997-01-25d3t09.flac
191:29.03 2026668020 B (totals for 31 files, 0.5358 overall compression ratio)

Reviews

There are no reviews yet. Be the first one to write a review.
DOWNLOAD OPTIONS
In Collection
Indecision
In Collection
Live Music Archive
Uploaded by
morst
on 10/8/2007
Views
1,741
Favorites
2
PEOPLE ALSO FOUND
Indecision
by Indecision
212
2
0
Source: Matrix: B&K4011 > V2[50%] + sbd[50%] > 744T(24/96)
Indecision
by Indecision
759
1
1
( 1 reviews )
Source: SBD + Audience Matrix
Indecision
by Indecision
537
2
0
Source: Matrix: B&K4011 (on stage)>V2 + sbd > Onyx-1220 > 744T(4 channel line in)(24/48)
Indecision
by Indecision
281
2
0
Source: sbd > 744T
Indecision
by Indecision
3,171
2
1
( 1 reviews )
Source: Soundboard + Onstage MG 200's->Onyx-1220 ->SD 722 @ 24/96
Indecision
by Indecision
171
2
0
Source: Matrix: B&K4022(ortf) > Sonosax[35%] + sbd[65%] > 744T
Indecision
by Indecision
5,164
2
1
( 1 reviews )
Source: SBD > cassette masters > DAT master > stand-alone CDR masters
Indecision
by Indecision
1,640
2
0
Source: Matrix: B&K4022(ortf)>Sonosax(fob/dfc)[35%] + sbd[65%]>744T
Indecision
by Indecision
452
1
0
Source: Matrix: sbd + Gefell m210(split on stage)>Aphex 207> Behringer Xenyx 1832>744T
Indecision
by Indecision
1,838
1
2
( 2 reviews )
Source: Peluso CEMC-6/CK4(XY 90ยบ) > E.A.A. PSP-2 > Oade ACM Tascam HD-P2 @ 24/96